999
DXF file: 50940040.dxf
999
Pro/ENGINEER 2018400 by Parametric Technology Corporation
  0
SECTION
  2
HEADER
  9
$ACADVER
  1
AC1027
  9
$DWGCODEPAGE
  3
ANSI_1252
  9
$EXTMAX
 10
420.0
 20
297.0
 30
0.0
  9
$EXTMIN
 10
0.0
 20
0.0
 30
0.0
  9
$LIMMIN
 10
0.0
 20
0.0
  9
$LIMMAX
 10
420.0
 20
297.0
  9
$VIEWCTR
 10
210.0
 20
148.5
  9
$VIEWSIZE
 40
297.0
  9
$CLAYER
  8
0
  9
$LTSCALE
 40
23.1
  9
$CELTYPE
  6
BYLAYER
  9
$DIMSCALE
 40
1.0
  9
$DIMASZ
 40
3.5
  9
$DIMEXO
 40
0.0
  9
$DIMDLI
 40
15.96
  9
$DIMEXE
 40
1.5
  9
$DIMCEN
 40
3.78
  9
$DIMLFAC
 40
1.0
  9
$DIMBLK
  1
_FILLED
  9
$DIMALT
 70
0
  9
$DIMALTF
 40
0.0393700787
  9
$DIMTXT
 40
3.5
  9
$DIMTOL
 70
1
  9
$DIMLIM
 70
0
  9
$DIMTFAC
 40
1.0
  9
$DIMTP
 40
0.05
  9
$DIMTM
 40
0.05
  9
$DIMGAP
 40
0.625
  9
$DIMDSEP
 70
46
  9
$AUNITS
 70
0
  9
$PDMODE
 70
3
  9
$PDSIZE
 40
0.3125
  9
$HANDSEED
  5
26E
  9
$TILEMODE
 70
1
  9
$MEASUREMENT
 70
1
  9
$INSUNITS
 70
4
  0
ENDSEC
  0
SECTION
  2
CLASSES
  0
CLASS
  1
ACDBDICTIONARYWDFLT
  2
AcDbDictionaryWithDefault
  3
AutoCAD 2000
 90
0
 91
1
280
0
281
0
  0
CLASS
  1
ACDBPLACEHOLDER
  2
AcDbPlaceHolder
  3
AutoCAD 2000
 90
0
 91
1
280
0
281
0
  0
CLASS
  1
LAYOUT
  2
AcDbLayout
  3
AutoCAD 2000
 90
0
 91
0
280
0
281
0
  0
ENDSEC
  0
SECTION
  2
TABLES
  0
TABLE
  2
VPORT
  5
8
100
AcDbSymbolTable
 70
2
  0
VPORT
  5
1F4
100
AcDbSymbolTableRecord
100
AcDbViewportTableRecord
  2
*ACTIVE
 70
0
 10
0.0
 20
0.0
 11
1.0
 21
1.0
 12
210.0
 22
148.5
 13
0.0
 23
0.0
 14
1.0
 24
1.0
 15
0.0
 25
0.0
 16
0.0
 26
0.0
 36
1.0
 17
0.0
 27
0.0
 37
0.0
 40
297.0
 41
1.4141414141
 42
50.0
 43
0.0
 44
0.0
 50
0.0
 51
0.0
 71
0
 72
100
 73
1
 74
1
 75
0
 76
0
 77
0
 78
0
  0
ENDTAB
  0
TABLE
  2
LTYPE
  5
5
100
AcDbSymbolTable
 70
6
  0
LTYPE
  5
14
100
AcDbSymbolTableRecord
100
AcDbLinetypeTableRecord
  2
BYBLOCK
 70
0
  3

 72
65
 73
0
 40
0.0
  0
LTYPE
  5
15
100
AcDbSymbolTableRecord
100
AcDbLinetypeTableRecord
  2
BYLAYER
 70
0
  3

 72
65
 73
0
 40
0.0
  0
LTYPE
  5
16
100
AcDbSymbolTableRecord
100
AcDbLinetypeTableRecord
  2
CONTINUOUS
 70
64
  3
Solid line
 72
65
 73
0
 40
0.0
  0
LTYPE
  5
1F5
100
AcDbSymbolTableRecord
100
AcDbLinetypeTableRecord
  2
CENTER
 70
64
  3
____ _ ____ _ ____ _ ____ _ ____ _ ____ _ ____
 72
65
 73
4
 40
0.6
 49
0.375
 74
0
 49
-0.075
 74
0
 49
0.075
 74
0
 49
-0.075
 74
0
  0
LTYPE
  5
1F6
100
AcDbSymbolTableRecord
100
AcDbLinetypeTableRecord
  2
HIDDEN
 70
64
  3
- - - - - - - - - - - - - - - - - - - -
 72
65
 73
2
 40
0.2
 49
0.1
 74
0
 49
-0.1
 74
0
  0
LTYPE
  5
1F7
100
AcDbSymbolTableRecord
100
AcDbLinetypeTableRecord
  2
PHANTOM
 70
64
  3
_____ _ _ _____ _ _ _____ _ _ _____
 72
65
 73
6
 40
0.8
 49
0.45
 74
0
 49
-0.05
 74
0
 49
0.1
 74
0
 49
-0.05
 74
0
 49
0.1
 74
0
 49
-0.05
 74
0
  0
LTYPE
  5
1F8
100
AcDbSymbolTableRecord
100
AcDbLinetypeTableRecord
  2
DOT
 70
64
  3
. . . . . . . . . . . . . . . . . . . .
 72
65
 73
2
 40
0.2
 49
0.1
 74
0
 49
-0.1
 74
0
  0
LTYPE
  5
1F9
100
AcDbSymbolTableRecord
100
AcDbLinetypeTableRecord
  2
DASHED
 70
64
  3
- - - - - - - - - - - - - - - - - - - -
 72
65
 73
2
 40
0.2
 49
0.1
 74
0
 49
-0.1
 74
0
  0
ENDTAB
  0
TABLE
  2
LAYER
  5
2
100
AcDbSymbolTable
 70
36
  0
LAYER
  5
10
100
AcDbSymbolTableRecord
100
AcDbLayerTableRecord
  2
0
 70
0
 62
7
  6
CONTINUOUS
370
-3
390
F
  0
LAYER
  5
1FA
100
AcDbSymbolTableRecord
100
AcDbLayerTableRecord
  2
DEFAULT_1
 70
0
 62
7
  6
CENTER
370
-3
390
F
  0
LAYER
  5
1FB
100
AcDbSymbolTableRecord
100
AcDbLayerTableRecord
  2
DEFAULT_2
 70
0
 62
1
  6
HIDDEN
370
-3
390
F
  0
LAYER
  5
1FC
100
AcDbSymbolTableRecord
100
AcDbLayerTableRecord
  2
DEFAULT_3
 70
0
 62
7
  6
PHANTOM
370
-3
390
F
  0
LAYER
  5
1FD
100
AcDbSymbolTableRecord
100
AcDbLayerTableRecord
  2
BG_STARTBEZUEGE
 70
0
 62
7
  6
CONTINUOUS
370
-3
390
F
  0
LAYER
  5
1FE
100
AcDbSymbolTableRecord
100
AcDbLayerTableRecord
  2
CUT
 70
0
 62
7
  6
CONTINUOUS
370
-3
390
F
  0
LAYER
  5
1FF
100
AcDbSymbolTableRecord
100
AcDbLayerTableRecord
  2
HILFEN
 70
0
 62
7
  6
CONTINUOUS
370
-3
390
F
  0
LAYER
  5
200
100
AcDbSymbolTableRecord
100
AcDbLayerTableRecord
  2
NOCUT
 70
0
 62
7
  6
CONTINUOUS
370
-3
390
F
  0
LAYER
  5
201
100
AcDbSymbolTableRecord
100
AcDbLayerTableRecord
  2
PLATZIERUNG
 70
0
 62
7
  6
CONTINUOUS
370
-3
390
F
  0
LAYER
  5
202
100
AcDbSymbolTableRecord
100
AcDbLayerTableRecord
  2
T_STARTBEZUEGE
 70
0
 62
7
  6
CONTINUOUS
370
-3
390
F
  0
LAYER
  5
203
100
AcDbSymbolTableRecord
100
AcDbLayerTableRecord
  2
_03_2D_ZEICHNUNG_BEMASSUNGEN
 70
0
 62
7
  6
CONTINUOUS
370
-3
390
F
  0
LAYER
  5
204
100
AcDbSymbolTableRecord
100
AcDbLayerTableRecord
  2
_04_NOTIZEN
 70
0
 62
7
  6
CONTINUOUS
370
-3
390
F
  0
LAYER
  5
205
100
AcDbSymbolTableRecord
100
AcDbLayerTableRecord
  2
_05_2D_ELEMENTE
 70
0
 62
7
  6
CONTINUOUS
370
-3
390
F
  0
LAYER
  5
206
100
AcDbSymbolTableRecord
100
AcDbLayerTableRecord
  2
_07_EINRASTLINIEN
 70
0
 62
7
  6
CONTINUOUS
370
-3
390
F
  0
LAYER
  5
207
100
AcDbSymbolTableRecord
100
AcDbLayerTableRecord
  2
_21_KURVEN
 70
0
 62
7
  6
CONTINUOUS
370
-3
390
F
  0
LAYER
  5
208
100
AcDbSymbolTableRecord
100
AcDbLayerTableRecord
  2
_26_BEZUGSACHSEN
 70
0
 62
7
  6
CONTINUOUS
370
-3
390
F
  0
LAYER
  5
209
100
AcDbSymbolTableRecord
100
AcDbLayerTableRecord
  2
_27_BEZUGSEBENEN
 70
0
 62
7
  6
CONTINUOUS
370
-3
390
F
  0
LAYER
  5
20A
100
AcDbSymbolTableRecord
100
AcDbLayerTableRecord
  2
_28_BEZUGSPUNKTE
 70
0
 62
7
  6
CONTINUOUS
370
-3
390
F
  0
LAYER
  5
20B
100
AcDbSymbolTableRecord
100
AcDbLayerTableRecord
  2
_29_KOORDINATENSYSTEME
 70
0
 62
7
  6
CONTINUOUS
370
-3
390
F
  0
LAYER
  5
20C
100
AcDbSymbolTableRecord
100
AcDbLayerTableRecord
  2
_30_VOLUMEN
 70
0
 62
7
  6
CONTINUOUS
370
-3
390
F
  0
ENDTAB
  0
TABLE
  2
STYLE
  5
3
100
AcDbSymbolTable
 70
1
  0
STYLE
  5
11
100
AcDbSymbolTableRecord
100
AcDbTextStyleTableRecord
  2
STANDARD
 70
0
 40
0.0
 41
0.7
 50
0.0
 71
0
 42
0.2
  3
SIMPLEX.SHX
  4

  0
STYLE
  5
20D
100
AcDbSymbolTableRecord
100
AcDbTextStyleTableRecord
  2
TEXTSTYLE_1
 70
0
 40
0.0
 41
0.8
 50
0.0
 71
0
 42
0.2
  3
gdt
  4

  0
STYLE
  5
20E
100
AcDbSymbolTableRecord
100
AcDbTextStyleTableRecord
  2
TEXTSTYLE_2
 70
0
 40
0.0
 41
0.7
 50
0.0
 71
0
 42
0.2
  3
gdt
  4

  0
ENDTAB
  0
TABLE
  2
VIEW
  5
6
100
AcDbSymbolTable
 70
0
  0
ENDTAB
  0
TABLE
  2
UCS
  5
7
100
AcDbSymbolTable
 70
0
  0
ENDTAB
  0
TABLE
  2
APPID
  5
9
100
AcDbSymbolTable
 70
1
  0
APPID
  5
20F
100
AcDbSymbolTableRecord
100
AcDbRegAppTableRecord
  2
ACAD
 70
0
  0
ENDTAB
  0
TABLE
  2
BLOCK_RECORD
  5
1
100
AcDbSymbolTable
 70
0
  0
BLOCK_RECORD
  5
210
100
AcDbSymbolTableRecord
100
AcDbBlockTableRecord
  2
*Model_Space
  0
BLOCK_RECORD
  5
211
100
AcDbSymbolTableRecord
100
AcDbBlockTableRecord
  2
*Paper_Space
  0
BLOCK_RECORD
  5
212
100
AcDbSymbolTableRecord
100
AcDbBlockTableRecord
  2
_FILLED
  0
BLOCK_RECORD
  5
213
100
AcDbSymbolTableRecord
100
AcDbBlockTableRecord
  2
*D0
  0
BLOCK_RECORD
  5
214
100
AcDbSymbolTableRecord
100
AcDbBlockTableRecord
  2
*D1
  0
BLOCK_RECORD
  5
215
100
AcDbSymbolTableRecord
100
AcDbBlockTableRecord
  2
*D2
  0
BLOCK_RECORD
  5
216
100
AcDbSymbolTableRecord
100
AcDbBlockTableRecord
  2
*D3
  0
BLOCK_RECORD
  5
217
100
AcDbSymbolTableRecord
100
AcDbBlockTableRecord
  2
*D4
  0
ENDTAB
  0
TABLE
  2
DIMSTYLE
  5
A
100
AcDbSymbolTable
 70
1
100
AcDbDimStyleTable
 71
0
  0
DIMSTYLE
105
218
100
AcDbSymbolTableRecord
100
AcDbDimStyleTableRecord
  2
STANDARD
 70
0
  3

  4

 40
1.0
 41
3.5
 42
0.0
 43
0.38
 44
1.5
 45
0.0
 46
0.0
 47
0.05
 48
0.05
140
3.5
141
0.09
142
0.0
143
25.4
144
1.0
145
0.0
146
1.0
147
0.625
 71
1.0
 72
0.0
 73
0
 74
0
 75
0
 76
0
 77
1
 78
8
 79
2
170
0
171
1
172
0
173
0
174
0
175
0
176
0
177
0
178
2
270
2
179
2
271
2
272
2
273
2
274
2
275
0
280
0
281
0
282
0
283
1
284
8
285
0
286
0
287
3
288
0
340
11
278
46
341
212
342
212
343
212
344
212
  0
DIMSTYLE
105
219
100
AcDbSymbolTableRecord
100
AcDbDimStyleTableRecord
  2
DIMSTYLE_1
 70
0
  3

  4

 40
1.0
 41
3.5
 42
0.0
 43
0.38
 44
1.5
 45
0.0
 46
0.0
 47
0.1
 48
0.1
140
3.5
141
0.09
142
0.0
143
25.4
144
1.0
145
0.0
146
1.0
147
0.875
 71
0.0
 72
0.0
 73
0
 74
0
 75
0
 76
0
 77
1
 78
8
 79
2
170
0
171
1
172
0
173
0
174
0
175
0
176
0
177
0
178
2
270
2
179
2
271
2
272
2
273
2
274
2
275
0
280
0
281
0
282
0
283
1
284
8
285
0
286
0
287
3
288
0
340
11
278
46
341
212
342
212
343
212
344
212
  0
DIMSTYLE
105
21A
100
AcDbSymbolTableRecord
100
AcDbDimStyleTableRecord
  2
DIMSTYLE_2
 70
0
  3

  4

 40
1.0
 41
3.5
 42
0.0
 43
0.38
 44
1.5
 45
0.0
 46
0.0
 47
0.3
 48
0.3
140
3.5
141
0.09
142
0.0
143
25.4
144
1.0
145
0.0
146
1.0
147
0.875
 71
0.0
 72
0.0
 73
0
 74
0
 75
0
 76
0
 77
1
 78
8
 79
2
170
0
171
1
172
0
173
0
174
0
175
0
176
0
177
0
178
2
270
2
179
2
271
2
272
2
273
2
274
2
275
0
280
0
281
0
282
0
283
1
284
8
285
0
286
0
287
3
288
0
340
11
278
46
341
212
342
212
343
212
344
212
  0
DIMSTYLE
105
21B
100
AcDbSymbolTableRecord
100
AcDbDimStyleTableRecord
  2
DIMSTYLE_3
 70
0
  3

  4

 40
1.0
 41
3.5
 42
0.0
 43
0.38
 44
1.5
 45
0.0
 46
0.0
 47
0.1
 48
0.1
140
3.5
141
0.09
142
0.0
143
25.4
144
1.0
145
0.0
146
1.0
147
3.5
 71
0.0
 72
0.0
 73
0
 74
0
 75
0
 76
0
 77
1
 78
8
 79
2
170
0
171
1
172
0
173
0
174
0
175
0
176
0
177
0
178
2
270
2
179
2
271
1
272
-1
273
2
274
2
275
0
280
0
281
0
282
0
283
1
284
8
285
0
286
0
287
3
288
0
340
11
278
46
341
212
342
212
343
212
344
212
  0
DIMSTYLE
105
21C
100
AcDbSymbolTableRecord
100
AcDbDimStyleTableRecord
  2
DIMSTYLE_4
 70
0
  3

  4

 40
1.0
 41
3.5
 42
0.0
 43
0.38
 44
1.5
 45
0.0
 46
0.0
 47
0.2
 48
0.2
140
3.5
141
0.09
142
0.0
143
25.4
144
1.0
145
0.0
146
1.0
147
0.875
 71
0.0
 72
0.0
 73
0
 74
0
 75
0
 76
0
 77
1
 78
8
 79
2
170
0
171
1
172
0
173
0
174
0
175
0
176
0
177
0
178
2
270
2
179
2
271
2
272
2
273
2
274
2
275
0
280
0
281
0
282
0
283
1
284
8
285
0
286
0
287
3
288
0
340
11
278
46
341
212
342
212
343
212
344
212
  0
ENDTAB
  0
ENDSEC
  0
SECTION
  2
BLOCKS
  0
BLOCK
  5
20
100
AcDbEntity
  8
0
100
AcDbBlockBegin
  2
*Model_Space
 70
0
 10
0.0
 20
0.0
 30
0.0
  3
*Model_Space
  1

  0
ENDBLK
  5
21
100
AcDbEntity
  8
0
100
AcDbBlockEnd
  0
BLOCK
  5
1C
100
AcDbEntity
  8
0
100
AcDbBlockBegin
  2
*Paper_Space
 70
0
 10
0.0
 20
0.0
 30
0.0
  3
*Paper_Space
  1

  0
ENDBLK
  5
1D
100
AcDbEntity
  8
0
100
AcDbBlockEnd
  0
BLOCK
  5
21D
100
AcDbEntity
  8
0
100
AcDbBlockBegin
  2
_FILLED
 70
64
 10
0.0
 20
0.0
  3
_FILLED
  1

  0
SOLID
  5
21E
100
AcDbEntity
  8
0
  6
BYBLOCK
 62
0
100
AcDbTrace
 10
0.0
 20
0.0
 11
-1.0
 21
0.125
 12
-1.0
 22
-0.125
 13
-1.0
 23
-0.125
  0
ENDBLK
  5
21F
100
AcDbEntity
  8
0
  6
BYBLOCK
 62
0
100
AcDbBlockEnd
  0
BLOCK
  5
220
100
AcDbEntity
  8
_03_2D_ZEICHNUNG_BEMASSUNGEN
100
AcDbBlockBegin
 62
7
  6
CONTINUOUS
  2
*D0
 70
65
 10
0.0
 20
0.0
  3
*D0
  1

  0
TEXT
  5
221
100
AcDbEntity
  8
_03_2D_ZEICHNUNG_BEMASSUNGEN
100
AcDbText
 62
2
  6
CONTINUOUS
 10
-9.875
 20
-3.7083333333
  7
TEXTSTYLE_2
 40
3.5
  1
n
 50
90.0
 41
1.0
 72
1
 11
-9.875
 21
-1.375
100
AcDbText
  0
TEXT
  5
222
100
AcDbEntity
  8
_03_2D_ZEICHNUNG_BEMASSUNGEN
100
AcDbText
 62
2
  6
CONTINUOUS
 10
-9.875
 20
0.9583333333
  7
STANDARD
 40
3.5
  1
4
 50
90.0
 41
0.7857142857
 72
1
 11
-9.875
 21
2.3333333333
100
AcDbText
  0
LINE
  5
223
100
AcDbEntity
  8
_03_2D_ZEICHNUNG_BEMASSUNGEN
100
AcDbLine
 62
7
  6
CONTINUOUS
 10
0.25
 20
-2.0
 11
-8.125
 21
-2.0
  0
LINE
  5
224
100
AcDbEntity
  8
_03_2D_ZEICHNUNG_BEMASSUNGEN
100
AcDbLine
 62
7
  6
CONTINUOUS
 10
0.25
 20
2.0
 11
-8.125
 21
2.0
  0
LINE
  5
225
100
AcDbEntity
  8
_03_2D_ZEICHNUNG_BEMASSUNGEN
100
AcDbLine
 62
7
  6
CONTINUOUS
 10
-9.0
 20
-2.0
 11
-9.0
 21
-8.0
  0
LINE
  5
226
100
AcDbEntity
  8
_03_2D_ZEICHNUNG_BEMASSUNGEN
100
AcDbLine
 62
7
  6
CONTINUOUS
 10
-9.0
 20
-8.0
 11
-9.0
 21
0.0
  0
LINE
  5
227
100
AcDbEntity
  8
_03_2D_ZEICHNUNG_BEMASSUNGEN
100
AcDbLine
 62
7
  6
CONTINUOUS
 10
-9.0
 20
2.0
 11
-9.0
 21
8.0
  0
LINE
  5
228
100
AcDbEntity
  8
_03_2D_ZEICHNUNG_BEMASSUNGEN
100
AcDbLine
 62
7
  6
CONTINUOUS
 10
-9.0
 20
8.0
 11
-9.0
 21
0.0
  0
INSERT
  5
229
100
AcDbEntity
  8
_03_2D_ZEICHNUNG_BEMASSUNGEN
100
AcDbBlockReference
 62
7
  6
CONTINUOUS
  2
_FILLED
 10
-9.0
 20
-2.0
 41
3.5
 42
3.5
 43
3.5
 50
90.0
  0
INSERT
  5
22A
100
AcDbEntity
  8
_03_2D_ZEICHNUNG_BEMASSUNGEN
100
AcDbBlockReference
 62
7
  6
CONTINUOUS
  2
_FILLED
 10
-9.0
 20
2.0
 41
3.5
 42
3.5
 43
3.5
 50
270.0
  0
ENDBLK
  5
22B
100
AcDbEntity
  8
0
  6
BYBLOCK
 62
0
100
AcDbBlockEnd
  0
BLOCK
  5
22C
100
AcDbEntity
  8
_03_2D_ZEICHNUNG_BEMASSUNGEN
100
AcDbBlockBegin
 62
7
  6
CONTINUOUS
  2
*D1
 70
65
 10
0.0
 20
0.0
  3
*D1
  1

  0
TEXT
  5
22D
100
AcDbEntity
  8
_03_2D_ZEICHNUNG_BEMASSUNGEN
100
AcDbText
 62
2
  6
CONTINUOUS
 10
24.375
 20
20.875
  7
STANDARD
 40
3.5
  1
54
 41
0.75
 72
1
 11
27.0
 21
20.875
100
AcDbText
  0
LINE
  5
22E
100
AcDbEntity
  8
_03_2D_ZEICHNUNG_BEMASSUNGEN
100
AcDbLine
 62
7
  6
CONTINUOUS
 10
0.0
 20
-1.8347240598
 11
0.0
 21
21.5
  0
LINE
  5
22F
100
AcDbEntity
  8
_03_2D_ZEICHNUNG_BEMASSUNGEN
100
AcDbLine
 62
7
  6
CONTINUOUS
 10
54.0
 20
-1.8347240598
 11
54.0
 21
21.5
  0
LINE
  5
230
100
AcDbEntity
  8
_03_2D_ZEICHNUNG_BEMASSUNGEN
100
AcDbLine
 62
7
  6
CONTINUOUS
 10
0.0
 20
20.0
 11
27.0
 21
20.0
  0
LINE
  5
231
100
AcDbEntity
  8
_03_2D_ZEICHNUNG_BEMASSUNGEN
100
AcDbLine
 62
7
  6
CONTINUOUS
 10
54.0
 20
20.0
 11
27.0
 21
20.0
  0
INSERT
  5
232
100
AcDbEntity
  8
_03_2D_ZEICHNUNG_BEMASSUNGEN
100
AcDbBlockReference
 62
7
  6
CONTINUOUS
  2
_FILLED
 10
0.0
 20
20.0
 41
3.5
 42
3.5
 43
3.5
 50
180.0
  0
INSERT
  5
233
100
AcDbEntity
  8
_03_2D_ZEICHNUNG_BEMASSUNGEN
100
AcDbBlockReference
 62
7
  6
CONTINUOUS
  2
_FILLED
 10
54.0
 20
20.0
 41
3.5
 42
3.5
 43
3.5
  0
ENDBLK
  5
234
100
AcDbEntity
  8
0
  6
BYBLOCK
 62
0
100
AcDbBlockEnd
  0
BLOCK
  5
235
100
AcDbEntity
  8
_03_2D_ZEICHNUNG_BEMASSUNGEN
100
AcDbBlockBegin
 62
7
  6
CONTINUOUS
  2
*D2
 70
65
 10
0.0
 20
0.0
  3
*D2
  1

  0
TEXT
  5
236
100
AcDbEntity
  8
_03_2D_ZEICHNUNG_BEMASSUNGEN
100
AcDbText
 62
2
  6
CONTINUOUS
 10
62.125
 20
-3.7083333333
  7
TEXTSTYLE_2
 40
3.5
  1
n
 50
90.0
 41
1.0
 72
1
 11
62.125
 21
-1.375
100
AcDbText
  0
TEXT
  5
237
100
AcDbEntity
  8
_03_2D_ZEICHNUNG_BEMASSUNGEN
100
AcDbText
 62
2
  6
CONTINUOUS
 10
62.125
 20
0.9583333333
  7
STANDARD
 40
3.5
  1
4
 50
90.0
 41
0.7857142857
 72
1
 11
62.125
 21
2.3333333333
100
AcDbText
  0
LINE
  5
238
100
AcDbEntity
  8
_03_2D_ZEICHNUNG_BEMASSUNGEN
100
AcDbLine
 62
7
  6
CONTINUOUS
 10
50.54
 20
-2.0
 11
56.875
 21
-2.0
  0
LINE
  5
239
100
AcDbEntity
  8
_03_2D_ZEICHNUNG_BEMASSUNGEN
100
AcDbLine
 62
7
  6
CONTINUOUS
 10
63.875
 20
-2.0
 11
64.5
 21
-2.0
  0
LINE
  5
23A
100
AcDbEntity
  8
_03_2D_ZEICHNUNG_BEMASSUNGEN
100
AcDbLine
 62
7
  6
CONTINUOUS
 10
50.54
 20
2.0
 11
56.875
 21
2.0
  0
LINE
  5
23B
100
AcDbEntity
  8
_03_2D_ZEICHNUNG_BEMASSUNGEN
100
AcDbLine
 62
7
  6
CONTINUOUS
 10
63.875
 20
2.0
 11
64.5
 21
2.0
  0
LINE
  5
23C
100
AcDbEntity
  8
_03_2D_ZEICHNUNG_BEMASSUNGEN
100
AcDbLine
 62
7
  6
CONTINUOUS
 10
63.0
 20
-2.0
 11
63.0
 21
-8.0
  0
LINE
  5
23D
100
AcDbEntity
  8
_03_2D_ZEICHNUNG_BEMASSUNGEN
100
AcDbLine
 62
7
  6
CONTINUOUS
 10
63.0
 20
-8.0
 11
63.0
 21
0.0
  0
LINE
  5
23E
100
AcDbEntity
  8
_03_2D_ZEICHNUNG_BEMASSUNGEN
100
AcDbLine
 62
7
  6
CONTINUOUS
 10
63.0
 20
2.0
 11
63.0
 21
8.0
  0
LINE
  5
23F
100
AcDbEntity
  8
_03_2D_ZEICHNUNG_BEMASSUNGEN
100
AcDbLine
 62
7
  6
CONTINUOUS
 10
63.0
 20
8.0
 11
63.0
 21
0.0
  0
INSERT
  5
240
100
AcDbEntity
  8
_03_2D_ZEICHNUNG_BEMASSUNGEN
100
AcDbBlockReference
 62
7
  6
CONTINUOUS
  2
_FILLED
 10
63.0
 20
-2.0
 41
3.5
 42
3.5
 43
3.5
 50
90.0
  0
INSERT
  5
241
100
AcDbEntity
  8
_03_2D_ZEICHNUNG_BEMASSUNGEN
100
AcDbBlockReference
 62
7
  6
CONTINUOUS
  2
_FILLED
 10
63.0
 20
2.0
 41
3.5
 42
3.5
 43
3.5
 50
270.0
  0
ENDBLK
  5
242
100
AcDbEntity
  8
0
  6
BYBLOCK
 62
0
100
AcDbBlockEnd
  0
BLOCK
  5
243
100
AcDbEntity
  8
_03_2D_ZEICHNUNG_BEMASSUNGEN
100
AcDbBlockBegin
 62
7
  6
CONTINUOUS
  2
*D3
 70
65
 10
0.0
 20
0.0
  3
*D3
  1

  0
TEXT
  5
244
100
AcDbEntity
  8
_03_2D_ZEICHNUNG_BEMASSUNGEN
100
AcDbText
 62
2
  6
CONTINUOUS
 10
72.4972392685
 20
-5.9252993614
  7
STANDARD
 40
3.5
  1
60.1
 50
89.9732619545
 41
0.6785714286
 72
1
 11
72.4994559364
 21
-1.1752998786
100
AcDbText
  0
TEXT
  5
245
100
AcDbEntity
  8
_03_2D_ZEICHNUNG_BEMASSUNGEN
100
AcDbText
 62
2
  6
CONTINUOUS
 10
72.5016726042
 20
3.5746996041
  7
TEXTSTYLE_2
 40
3.5
  1
~
 50
89.9732619545
 41
1.0
 72
1
 11
72.5022170489
 21
4.7413661438
100
AcDbText
  0
LINE
  5
246
100
AcDbEntity
  8
_03_2D_ZEICHNUNG_BEMASSUNGEN
100
AcDbLine
 62
7
  6
CONTINUOUS
 10
54.0
 20
0.0
 11
74.3455667825
 21
-11.7604432269
  0
LINE
  5
247
100
AcDbEntity
  8
_03_2D_ZEICHNUNG_BEMASSUNGEN
100
AcDbLine
 62
7
  6
CONTINUOUS
 10
54.0
 20
0.0
 11
74.3455667825
 21
11.7604432269
  0
ARC
  5
248
100
AcDbEntity
  8
_03_2D_ZEICHNUNG_BEMASSUNGEN
100
AcDbCircle
 62
7
  6
CONTINUOUS
 10
54.0
 20
0.0
 40
22.0000023956
100
AcDbArc
 50
329.9705982385
 51
360.0
  0
ARC
  5
249
100
AcDbEntity
  8
_03_2D_ZEICHNUNG_BEMASSUNGEN
100
AcDbCircle
 62
7
  6
CONTINUOUS
 10
54.0
 20
0.0
 40
22.0000023956
100
AcDbArc
 50
0.0
 51
30.0294017615
  0
SOLID
  5
24A
100
AcDbEntity
  8
_03_2D_ZEICHNUNG_BEMASSUNGEN
100
AcDbTrace
 62
7
  6
CONTINUOUS
 10
74.1571728588
 20
-7.6618324368
 11
73.046913716
 21
-11.0097767144
 12
74.9471203996
 22
-8.0381406652
 13
74.9471203996
 23
-8.0381406652
  0
SOLID
  5
24B
100
AcDbEntity
  8
_03_2D_ZEICHNUNG_BEMASSUNGEN
100
AcDbTrace
 62
7
  6
CONTINUOUS
 10
74.9471203996
 20
8.0381406652
 11
73.046913716
 21
11.0097767144
 12
74.1571728588
 22
7.6618324368
 13
74.1571728588
 23
7.6618324368
  0
ENDBLK
  5
24C
100
AcDbEntity
  8
0
  6
BYBLOCK
 62
0
100
AcDbBlockEnd
  0
BLOCK
  5
24D
100
AcDbEntity
  8
_03_2D_ZEICHNUNG_BEMASSUNGEN
100
AcDbBlockBegin
 62
7
  6
CONTINUOUS
  2
*D4
 70
65
 10
0.0
 20
0.0
  3
*D4
  1

  0
TEXT
  5
24E
100
AcDbEntity
  8
_03_2D_ZEICHNUNG_BEMASSUNGEN
100
AcDbText
 62
2
  6
CONTINUOUS
 10
38.25
 20
11.875
  7
STANDARD
 40
3.5
  1
26
 41
0.7857142857
 72
1
 11
41.0
 21
11.875
100
AcDbText
  0
LINE
  5
24F
100
AcDbEntity
  8
_03_2D_ZEICHNUNG_BEMASSUNGEN
100
AcDbLine
 62
7
  6
CONTINUOUS
 10
54.0
 20
-1.8347240598
 11
54.0
 21
12.5
  0
LINE
  5
250
100
AcDbEntity
  8
_03_2D_ZEICHNUNG_BEMASSUNGEN
100
AcDbLine
 62
7
  6
CONTINUOUS
 10
28.0
 20
-1.8347240598
 11
28.0
 21
12.5
  0
LINE
  5
251
100
AcDbEntity
  8
_03_2D_ZEICHNUNG_BEMASSUNGEN
100
AcDbLine
 62
7
  6
CONTINUOUS
 10
54.0
 20
11.0
 11
41.0
 21
11.0
  0
LINE
  5
252
100
AcDbEntity
  8
_03_2D_ZEICHNUNG_BEMASSUNGEN
100
AcDbLine
 62
7
  6
CONTINUOUS
 10
28.0
 20
11.0
 11
41.0
 21
11.0
  0
INSERT
  5
253
100
AcDbEntity
  8
_03_2D_ZEICHNUNG_BEMASSUNGEN
100
AcDbBlockReference
 62
7
  6
CONTINUOUS
  2
_FILLED
 10
54.0
 20
11.0
 41
3.5
 42
3.5
 43
3.5
  0
INSERT
  5
254
100
AcDbEntity
  8
_03_2D_ZEICHNUNG_BEMASSUNGEN
100
AcDbBlockReference
 62
7
  6
CONTINUOUS
  2
_FILLED
 10
28.0
 20
11.0
 41
3.5
 42
3.5
 43
3.5
 50
180.0
  0
ENDBLK
  5
255
100
AcDbEntity
  8
0
  6
BYBLOCK
 62
0
100
AcDbBlockEnd
  0
ENDSEC
  0
SECTION
  2
ENTITIES
  0
DIMENSION
  5
256
100
AcDbEntity
  8
_03_2D_ZEICHNUNG_BEMASSUNGEN
100
AcDbDimension
 62
7
  6
CONTINUOUS
  2
*D0
 10
-9.0
 20
2.0
 11
-9.0
 21
-0.0
 70
160
 71
2
 72
2
 41
0.9
 42
4.0
  1
%%c<>
  3
DIMSTYLE_1
100
AcDbAlignedDimension
 13
0.25
 23
-2.0
 14
0.25
 24
2.0
 50
90.0
100
AcDbRotatedDimension
  0
DIMENSION
  5
257
100
AcDbEntity
  8
_03_2D_ZEICHNUNG_BEMASSUNGEN
100
AcDbDimension
 62
7
  6
CONTINUOUS
  2
*D1
 10
54.0
 20
20.0
 11
26.4999998474
 21
20.0
 70
160
 71
2
 72
2
 41
0.9
 42
54.0
  3
DIMSTYLE_2
100
AcDbAlignedDimension
 13
0.0
 23
-1.8347240598
 14
54.0
 24
-1.8347240598
100
AcDbRotatedDimension
  0
DIMENSION
  5
258
100
AcDbEntity
  8
_03_2D_ZEICHNUNG_BEMASSUNGEN
100
AcDbDimension
 62
7
  6
CONTINUOUS
  2
*D2
 10
63.0
 20
2.0
 11
63.0
 21
0.0
 70
160
 71
2
 72
2
 41
0.9
 42
4.0
  1
%%c<>
  3
DIMSTYLE_1
100
AcDbAlignedDimension
 13
50.54
 23
-2.0
 14
50.54
 24
2.0
 50
90.0
100
AcDbRotatedDimension
  0
DIMENSION
  5
259
100
AcDbEntity
  8
_03_2D_ZEICHNUNG_BEMASSUNGEN
100
AcDbDimension
 62
7
  6
CONTINUOUS
  2
*D3
 10
54.0
 20
0.0
 11
76.0
 21
-0.0102666732
 70
162
 71
2
 72
2
 41
0.9
 42
1.0482238663
  3
DIMSTYLE_3
100
AcDb2LineAngularDimension
 13
53.8095308628
 23
0.1100977671
 14
54.0
 24
0.0
 15
53.8095308628
 25
-0.1100977671
 16
76.0000023956
 26
0.0
  0
DIMENSION
  5
25A
100
AcDbEntity
  8
_03_2D_ZEICHNUNG_BEMASSUNGEN
100
AcDbDimension
 62
7
  6
CONTINUOUS
  2
*D4
 10
28.0
 20
11.0
 11
40.4999993134
 21
11.0
 70
160
 71
2
 72
2
 41
0.9
 42
26.0
  3
DIMSTYLE_4
100
AcDbAlignedDimension
 13
54.0
 23
-1.8347240598
 14
28.0
 24
-1.8347240598
 50
180.0
100
AcDbRotatedDimension
  0
LINE
  5
25B
100
AcDbEntity
  8
_30_VOLUMEN
100
AcDbLine
 62
4
  6
CONTINUOUS
 10
-0.0
 20
-1.75
 11
0.0
 21
1.75
  0
LINE
  5
25C
100
AcDbEntity
  8
NOCUT
100
AcDbLine
 62
7
  6
CONTINUOUS
 10
0.0
 20
0.0
 11
0.0
 21
1.75
  0
LINE
  5
25D
100
AcDbEntity
  8
_30_VOLUMEN
100
AcDbLine
 62
4
  6
CONTINUOUS
 10
0.25
 20
-2.0
 11
0.25
 21
2.0
  0
LINE
  5
25E
100
AcDbEntity
  8
_30_VOLUMEN
100
AcDbLine
 62
4
  6
CONTINUOUS
 10
0.25
 20
2.0
 11
0.0
 21
1.75
  0
LINE
  5
25F
100
AcDbEntity
  8
NOCUT
100
AcDbLine
 62
7
  6
CONTINUOUS
 10
0.0
 20
1.75
 11
0.25
 21
2.0
  0
LINE
  5
260
100
AcDbEntity
  8
_30_VOLUMEN
100
AcDbLine
 62
4
  6
CONTINUOUS
 10
0.25
 20
-2.0
 11
-0.0
 21
-1.75
  0
LINE
  5
261
100
AcDbEntity
  8
_30_VOLUMEN
100
AcDbLine
 62
4
  6
CONTINUOUS
 10
50.54
 20
-2.0
 11
0.25
 21
-2.0
  0
LINE
  5
262
100
AcDbEntity
  8
BG_STARTBEZUEGE
100
AcDbLine
 62
7
  6
CENTER
 10
57.0
 20
-0.0
 11
-3.0
 21
0.0
  0
LINE
  5
263
100
AcDbEntity
  8
_30_VOLUMEN
100
AcDbLine
 62
4
  6
CONTINUOUS
 10
50.54
 20
2.0
 11
0.25
 21
2.0
  0
LINE
  5
264
100
AcDbEntity
  8
NOCUT
100
AcDbLine
 62
7
  6
CONTINUOUS
 10
0.25
 20
2.0
 11
50.54
 21
2.0
  0
LINE
  5
265
100
AcDbEntity
  8
_30_VOLUMEN
100
AcDbLine
 62
4
  6
CONTINUOUS
 10
54.0
 20
-0.0
 11
50.54
 21
-2.0
  0
LINE
  5
266
100
AcDbEntity
  8
_30_VOLUMEN
100
AcDbLine
 62
4
  6
CONTINUOUS
 10
54.0
 20
-0.0
 11
50.54
 21
2.0
  0
LINE
  5
267
100
AcDbEntity
  8
CUT
100
AcDbLine
 62
1
  6
CONTINUOUS
 10
50.54
 20
2.0
 11
54.0
 21
-0.0
  0
LINE
  5
268
100
AcDbEntity
  8
_21_KURVEN
100
AcDbLine
 62
5
  6
CONTINUOUS
 10
50.54
 20
2.0
 11
54.0
 21
-0.0
  0
LINE
  5
269
100
AcDbEntity
  8
_30_VOLUMEN
100
AcDbLine
 62
4
  6
CONTINUOUS
 10
50.54
 20
-2.0
 11
50.54
 21
2.0
  0
LINE
  5
26A
100
AcDbEntity
  8
CUT
100
AcDbLine
 62
1
  6
CONTINUOUS
 10
50.54
 20
-0.0
 11
50.54
 21
2.0
  0
LINE
  5
26B
100
AcDbEntity
  8
NOCUT
100
AcDbLine
 62
7
  6
CONTINUOUS
 10
50.54
 20
-0.0
 11
50.54
 21
2.0
  0
ENDSEC
  0
SECTION
  2
OBJECTS
  0
DICTIONARY
  5
C
100
AcDbDictionary
280
0
281
1
  3
ACAD_GROUP
350
D
  3
ACAD_MLINESTYLE
350
17
  3
ACAD_LAYOUT
350
1A
  3
ACAD_PLOTSETTINGS
350
19
  3
ACAD_PLOTSTYLENAME
350
E
  0
DICTIONARY
  5
D
102
{ACAD_REACTORS
330
C
102
}
100
AcDbDictionary
280
0
281
1
  0
ACDBDICTIONARYWDFLT
  5
E
102
{ACAD_REACTORS
330
C
102
}
100
AcDbDictionary
281
1
  3
Normal
350
F
100
AcDbDictionaryWithDefault
340
F
  0
DICTIONARY
  5
17
102
{ACAD_REACTORS
330
C
102
}
100
AcDbDictionary
280
0
281
1
  3
Standard
350
18
  0
DICTIONARY
  5
19
102
{ACAD_REACTORS
330
C
102
}
100
AcDbDictionary
281
1
  0
DICTIONARY
  5
1A
102
{ACAD_REACTORS
330
C
102
}
100
AcDbDictionary
281
1
  3
Model
350
26C
  3
Layout1
350
26D
  0
ACDBPLACEHOLDER
  5
F
102
{ACAD_REACTORS
330
E
102
}
  0
MLINESTYLE
  5
18
102
{ACAD_REACTORS
330
17
102
}
100
AcDbMlineStyle
  2
STANDARD
 70
0
  3

 62
256
 51
90.0
 52
90.0
 71
2
 49
0.5
 62
256
  6
BYLAYER
 49
-0.5
 62
256
  6
BYLAYER
  0
LAYOUT
  5
26C
102
{ACAD_REACTORS
330
1A
102
}
100
AcDbPlotSettings
  1

  2
none_device
  4
ISO_A3_(420.00_x_297.00_MM)
  6

 40
0.0
 41
0.0
 42
0.0
 43
0.0
 44
420.0
 45
297.0
 46
0.0
 47
0.0
 48
0.0
 49
0.0
140
0.0
141
0.0
142
1.0
143
1.0
 70
1024
 72
1
 73
0
 74
0
  7

 75
0
147
1.0
148
0.0
149
0.0
100
AcDbLayout
  1
Model
 70
0
 71
0
 10
0.0
 20
0.0
 11
420.0
 21
297.0
 12
0.0
 22
0.0
 32
0.0
 14
0.0
 24
0.0
 34
0.0
 15
0.0
 25
0.0
 35
0.0
146
0.0
 13
0.0
 23
0.0
 33
0.0
 16
1.0
 26
0.0
 36
0.0
 17
0.0
 27
1.0
 37
0.0
 76
0
330
210
345
0
346
0
  0
LAYOUT
  5
26D
102
{ACAD_REACTORS
330
1A
102
}
100
AcDbPlotSettings
  1

  2
none_device
  4
ISO_A3_(420.00_x_297.00_MM)
  6

 40
0.0
 41
0.0
 42
0.0
 43
0.0
 44
420.0
 45
297.0
 46
0.0
 47
0.0
 48
0.0
 49
0.0
140
0.0
141
0.0
142
1.0
143
1.0
 70
0
 72
1
 73
0
 74
0
  7

 75
0
147
1.0
148
0.0
149
0.0
100
AcDbLayout
  1
Layout1
 70
0
 71
1
 10
0.0
 20
0.0
 11
420.0
 21
297.0
 12
0.0
 22
0.0
 32
0.0
 14
0.0
 24
0.0
 34
0.0
 15
0.0
 25
0.0
 35
0.0
146
0.0
 13
0.0
 23
0.0
 33
0.0
 16
1.0
 26
0.0
 36
0.0
 17
0.0
 27
1.0
 37
0.0
 76
0
330
211
345
0
346
0
  0
ENDSEC
  0
EOF
